Имя:
Пароль:


a b c d e f g h i j k l m n o p q r s t u v w x y z    0 1 2 3 4 5 6 7 8 9 
а б в г д е ж з и й к л м н о п р с т у ф х ц ч ш щ ъ ы ь э ю я 

Скачать Erwin Schrdinger - Was ist Materie? (2002) бесплатно

14 апреля 2009 | Автор: Admin | Рубрика: Аудиокниги » Иностранные языки | Комментариев: 0

Erwin Schrdinger - Was ist Materie? (2002)
EAC Rip | FLAC, IMG+CUE, LOG | RAR 3% Rec | 353 MB
Catalog №: 3-932513-30-4 | 2002 | Label: Suppos


This double CD brings together the only two intact original recordings by Schrdinger: a lecture from 1952 in German language: "Was ist Materie?" (CD1) and in 1949 recorded on wax plates short lecture in English: "Do Electrons Think?" (CD2).



This CD had no booklet...
A click on the beginning of CD 1 is originally from recording. :)

Tracklisting:

CD1

Unsere Vorstellung von der Materie (1952) 71 min

1. Die Krise. Vorschau
2. Einiges ber Korpuskeln
3. Wellenfeld und Partikel: ihr experimenteller Nachweis
4. Quantentheorie: Planck, Bohr, de Broglie
5. Wellenfeld und Partikel: ihr theoretischer Zusammenhang
6. Quantensprung und Partikelidentitt
7. Wellenidentitt
8. Schluwort

CD2

Do Electrons Think? (1949) 15 min

EAC LOG (CD 1)
Exact Audio Copy V0.99 prebeta 4 from 23. January 2008

EAC extraction logfile from 11. April 2009, 17:23

Erwin Schrdinger / Was ist Materie? - CD1 - Unsere Vorstellung von der Materie (1952)

Used drive : HL-DT-STDVDRAM GSA-H66N Adapter: 3 ID: 1

Read mode : Secure
Utilize accurate stream : Yes
Defeat audio cache : Yes
Make use of C2 pointers : No

Combined read/write offset correction : 0
Overread into Lead-In and Lead-Out : No
Fill up missing offset samples with silence : Yes
Delete leading and trailing silent blocks : No
Null samples used in CRC calculations : Yes
Used interface : Native Win32 interface for Win NT & 2000

Used output format : User Defined Encoder
Selected bitrate : 768 kBit/s
Quality : High
Add ID3 tag : No
Command line compressor : C:Program FilesExact Audio CopyFLACFLAC.EXE
Additional command line options : -6 -V -T "ARTIST=%a" -T "TITLE=%t" -T "ALBUM=%g" -T "DATE=%y" -T "TRACKNUMBER=%n" -T "GENRE=%m" -T "COMMENT=%e" %s -o %d


TOC of the extracted CD

Track | Start | Length | Start sector | End sector
---------------------------------------------------------
1 | 0:00.00 | 8:53.46 | 0 | 40020
2 | 8:53.46 | 9:33.06 | 40021 | 83001
3 | 18:26.52 | 12:46.71 | 83002 | 140522
4 | 31:13.48 | 9:07.64 | 140523 | 181611
5 | 40:21.37 | 10:19.54 | 181612 | 228090
6 | 50:41.16 | 7:24.52 | 228091 | 261442
7 | 58:05.68 | 7:07.73 | 261443 | 293540
8 | 65:13.66 | 5:42.27 | 293541 | 319217


Range status and errors

Selected range

Filename E:= muzak =~ temp ~flacrip tempschrdingercd1Erwin Schrdinger - Was ist Materie - CD1 - Unsere Vorstellung von der Materie (1952).wav

Peak level 99.0 %
Range quality 100.0 %
Test CRC 35B94EC1
Copy CRC 35B94EC1
Copy OK

No errors occurred

End of status report

EAC LOG (CD 2)
Exact Audio Copy V0.99 prebeta 4 from 23. January 2008

EAC extraction logfile from 11. April 2009, 17:37

Erwin Schrdinger / Was ist Materie? CD2

Used drive : HL-DT-STDVDRAM GSA-H66N Adapter: 3 ID: 1

Read mode : Secure
Utilize accurate stream : Yes
Defeat audio cache : Yes
Make use of C2 pointers : No

Combined read/write offset correction : 0
Overread into Lead-In and Lead-Out : No
Fill up missing offset samples with silence : Yes
Delete leading and trailing silent blocks : No
Null samples used in CRC calculations : Yes
Used interface : Native Win32 interface for Win NT & 2000

Used output format : User Defined Encoder
Selected bitrate : 768 kBit/s
Quality : High
Add ID3 tag : No
Command line compressor : C:Program FilesExact Audio CopyFLACFLAC.EXE
Additional command line options : -6 -V -T "ARTIST=%a" -T "TITLE=%t" -T "ALBUM=%g" -T "DATE=%y" -T "TRACKNUMBER=%n" -T "GENRE=%m" -T "COMMENT=%e" %s -o %d


TOC of the extracted CD

Track | Start | Length | Start sector | End sector
---------------------------------------------------------
1 | 0:00.00 | 14:23.19 | 0 | 64743


Range status and errors

Selected range

Filename E:= muzak =~ temp ~flacrip tempschrdingercd2Erwin Schrdinger - Was ist Materie.wav

Peak level 99.0 %
Range quality 100.0 %
Test CRC 06E440D6
Copy CRC 06E440D6
Copy OK

No errors occurred

End of status report


Информация

Посетители, находящиеся в группе Гости, не могут оставлять комментарии в данной новости.
]